Jump to content

Bad Captain

VIP
  • Content Count

    223
  • Joined

  • Days Won

    3

Bad Captain last won the day on December 5 2021

Bad Captain had the most liked content!

About Bad Captain

  • Birthday July 2

Recent Profile Visitors

4,020 profile views
  1. WE ARE NOW AVAILABLE ON NEW TELEGRAM CHANNEL JOIN FOR LATEST UPDATES WE ALSO AVAILABLE IN ANDROID APP! INSTALL NOW TO GET INSTANT UPDATES & BYPASS RESTRICTIONS General Complete name :www.TamilBlasters.sbs - Amma Song (From Kanam) (2022) Tamil FLAC [24Bit - 48kHz] - Jakes Bejoy Musical.flac Format : FLAC Format/Info : Free Lossless Audio Codec File size : 62.1 MiB Duration : 5 min 19 s Overall bit rate mode : Variable Overall bit rate : 1 628 kb/s Album : Amma Song Album/Performer : Jakes Bejoy Part : 1 Part/Total : 1 Track name : Amma Song (From "Kanam") Track name/Position : 1 Track name/Total : 1 Performer : Jakes Bejoy Composer : Jakes Bejoy Recorded date : 2022-01-26 ISRC : FR10S2262863 Copyright : 2022 Dream Warrior Pictures 2022 Dream Warrior Pictures Cover : Yes Cover type : Cover (front) Cover MIME : image/jpeg Comment : Bad Captain MEDIATYPE : single ITUNESADVISORY : 1 Audio Format : FLAC Format/Info : Free Lossless Audio Codec Duration : 5 min 19 s Bit rate mode : Variable Bit rate : 1 626 kb/s Channel(s) : 2 channels Channel layout : L R Sampling rate : 48.0 kHz Bit depth : 24 bits Compression mode : Lossless Stream size : 63.0 MiB (100%) Hi - Res UNTOUCHED Tamil FLAC [24Bit - 48kHz] 63MB: www.TamilBlasters.sbs - Amma Song (From Kanam) (2022) Tamil FLAC [24Bit - 48kHz] - Jakes Bejoy Musical.flac Tamil Original MP3 [320Kbps] 13MB: www.TamilBlasters.sbs - Amma Song (From Kanam) (2022) Tamil Original HQ MP3 [320Kbps] - Jakes Bejoy Musical.mp3
  2. WE ARE NOW AVAILABLE ON NEW TELEGRAM CHANNEL JOIN FOR LATEST UPDATES WE ALSO AVAILABLE IN ANDROID APP! INSTALL NOW TO GET INSTANT UPDATES & BYPASS RESTRICTIONS General Complete name :www.TamilBlasters.sbs - Polladha Ulagam (From Maaran) (2022) Tamil Original MP3 [320Kbps] - G.V Prakash Musical.mp3 Format : MPEG Audio File size : 9.10 MiB Duration : 3 min 55 s Overall bit rate mode : Constant Overall bit rate : 320 kb/s Album : Polladha Ulagam (From "Maaran") Album/Performer : www.TamilBlasters.sbs - Bad Captain Part/Position : 1 Track name : Polladha Ulagam (From "Maaran") Track name/Position : 1 Performer : Dhanush, Arivu, G. V. Prakash Composer : www.TamilBlasters.sbs - Bad Captain Genre : www.TamilBlasters.sbs - Bad Captain Recorded date : 2022 Writing library : LAME3.100 Cover : Yes Cover MIME : image/jpeg Comment : www.TamilBlasters.sbs - Bad Captain Audio Format : MPEG Audio Format version : Version 1 Format profile : Layer 3 Format settings : Joint stereo / MS Stereo Duration : 3 min 55 s Bit rate mode : Constant Bit rate : 320 kb/s Channel(s) : 2 channels Sampling rate : 48.0 kHz Frame rate : 41.667 FPS (1152 SPF) Compression mode : Lossy Stream size : 9.09 MiB (100%) Writing library : LAME3.100 Tamil Original MP3 [320Kbps] 10MB: www.TamilBlasters.sbs - Polladha Ulagam (From Maaran) (2022) Tamil Original MP3 [320Kbps] - G.V Prakash Musical.mp3 Tamil Original MP3 [128Kbps] 4MB: www.TamilBlasters.sbs - Polladha Ulagam (From Maaran) (2022) Tamil Original MP3 [128Kbps] - G.V Prakash Musical.mp3 Maaran Motion Poster Theme
  3. WE ARE NOW AVAILABLE ON NEW TELEGRAM CHANNEL JOIN FOR LATEST UPDATE WE ALSO AVAILABLE IN ANDROID APP! INSTALL NOW TO GET INSTANT UPDATES & BYPASS RESTRICTIONS Tamil Original MP3 [320Kbps] 3MB: www.TamilBlasters.sbs - Maaran - Motion Poster Theme (2022) Tamil Original HQ MP3 [320Kbps] - G.V Prakash Musical.mp3 Tamil Original MP3 [128Kbps] 1MB: www.TamilBlasters.sbs - Maaran - Motion Poster Theme (2022) Tamil Original HQ MP3 [128Kbps] - G.V Prakash Musical.mp3
  4. WE ARE NOW AVAILABLE ON NEW TELEGRAM CHANNEL JOIN FOR LATEST UPDATES WE ALSO AVAILABLE IN ANDROID APP! INSTALL NOW TO GET INSTANT UPDATES & BYPASS RESTRICTIONS General Complete name :www.TamilBlasters.sbs - Alai Alai (From Koogle Kuttappa) (2022) Tamil Original MP3 [320Kbps] - Ghibran Musical.mp3 Format : MPEG Audio File size : 11.1 MiB Duration : 4 min 49 s Overall bit rate mode : Constant Overall bit rate : 320 kb/s Album : Alai Alai (From "Koogle Kuttappa") - Single Album/Performer : Ghibran Part/Position : 1 Part/Total : 1 Track name : Alai Alai (From "Koogle Kuttappa") Track name/Position : 1 Track name/Total : 1 Performer : G.V. Prakash Kumar Composer : Ghibran Recorded date : 2022 Writing library : LAME3.99r ISRC : INH102200534 Copyright : (C) 2022 Saregama India Ltd. (P) 2022 Saregama India Ltd. Cover : Yes Cover type : Cover (front) Cover MIME : image/jpeg Comment : Bad Captain Media Type : single Audio Format : MPEG Audio Format version : Version 1 Format profile : Layer 3 Format settings : Joint stereo Duration : 4 min 49 s Bit rate mode : Constant Bit rate : 320 kb/s Channel(s) : 2 channels Sampling rate : 44.1 kHz Frame rate : 38.281 FPS (1152 SPF) Compression mode : Lossy Stream size : 11.1 MiB (99%) Writing library : LAME3.99r Encoding settings : -m j -V 4 -q 3 -lowpass 20.5 Tamil MP3 [320Kbps] 11MB: www.TamilBlasters.sbs - Alai Alai (From Koogle Kuttappa) (2022) Tamil Original MP3 [320Kbps] - Ghibran Musical.mp3 Tamil MP3 [128Kbps] 5MB: www.TamilBlasters.sbs - Alai Alai (From Koogle Kuttappa) (2022) Tamil Original MP3 [128Kbps] - Ghibran Musical.mp3 Single Bomma Bomma - DOWNLOAD
  5. WE ARE NOW AVAILABLE ON NEW TELEGRAM CHANNEL JOIN FOR LATEST UPDATES WE ALSO AVAILABLE IN ANDROID APP! INSTALL NOW TO GET INSTANT UPDATES & BYPASS RESTRICTIONS General Complete name :www.TamilBlasters.sbs - Tribal Song (From Minnal Murali) Tamil Original FLAC [24Bit - 44.1kHz] - Sushin Shyam Musical.flac Format : FLAC Format/Info : Free Lossless Audio Codec File size : 23.3 MiB Duration : 2 min 20 s Overall bit rate mode : Variable Overall bit rate : 1 397 kb/s Album : Tribal Song Album/Performer : Sushin Shyam Part : 1 Part/Total : 1 Track name : Tribal Song (From "Minnal Murali") Track name/Position : 1 Track name/Total : 1 Performer : Sushin Shyam Composer : Sushin Shyam Recorded date : 2022-01-17 ISRC : INM812100141 Copyright : 2022 Muzik247 2022 Muzik247 Cover : Yes Cover type : Cover (front) Cover MIME : image/jpeg Comment : Bad Captain MEDIATYPE : single ITUNESADVISORY : 1 Audio Format : FLAC Format/Info : Free Lossless Audio Codec Duration : 2 min 20 s Bit rate mode : Variable Bit rate : 1 392 kb/s Channel(s) : 2 channels Channel layout : L R Sampling rate : 44.1 kHz Bit depth : 24 bits Compression mode : Lossless Stream size : 23.2 MiB (100%) Hi - Res UNTOUCHED FLAC [24Bit - 44.1kHz] 23MB: www.TamilBlasters.sbs - Tribal Song (From Minnal Murali) Tamil Original FLAC [24Bit - 44.1kHz] - Sushin Shyam Musical.flac Tamil Original HQ MP3 [320Kbps] 6MB: www.TamilBlasters.sbs - Tribal Song (From Minnal Murali) Tamil Original HQ MP3 [320Kbps] - Sushin Shyam Musical.mp3 Tamil Original HQ MP3 [128Kbps] 3MB: www.TamilBlasters.sbs - Tribal Song (From Minnal Murali) Tamil Original HQ MP3 [128Kbps] - Sushin Shyam Musical.mp3
  6. WE ARE NOW AVAILABLE ON NEW TELEGRAM CHANNEL JOIN FOR LATEST UPDATES WE ALSO AVAILABLE IN ANDROID APP! INSTALL NOW TO GET INSTANT UPDATES & BYPASS RESTRICTIONS General Complete name :www.TamilBlasters.sbs - Saaya (Single) (2022) Tamil Original HQ MP3 [320Kbps] - Mithun Eshwar Musical.mp3 Format : MPEG Audio File size : 9.24 MiB Duration : 3 min 59 s Overall bit rate mode : Constant Overall bit rate : 320 kb/s Album : Saaya - Single Album/Performer : K. Sivaangi Part/Position : 1 Part/Total : 1 Track name : Saaya Track name/Position : 1 Track name/Total : 1 Performer : K. Sivaangi Composer : Nakamaneci N Recorded date : 2022 Writing library : LAME3.99r ISRC : INH102200150 Copyright : (C) 2022 Saregama India Ltd. (P) 2022 Saregama India Ltd. Cover : Yes Cover type : Cover (front) Cover MIME : image/jpeg Comment : Bad Captain Media Type : single Audio Format : MPEG Audio Format version : Version 1 Format profile : Layer 3 Format settings : Joint stereo / MS Stereo Duration : 3 min 59 s Bit rate mode : Constant Bit rate : 320 kb/s Channel(s) : 2 channels Sampling rate : 44.1 kHz Frame rate : 38.281 FPS (1152 SPF) Compression mode : Lossy Stream size : 9.15 MiB (99%) Writing library : LAME3.99r Encoding settings : -m j -V 4 -q 3 -lowpass 20.5 Tamil Original HQ MP3 320Kbps 10MB: www.TamilBlasters.sbs - Saaya (Single) (2022) Tamil Original HQ MP3 [320Kbps] - Mithun Eshwar Musical.mp3 Tamil Original HQ MP3 128Kbps 4MB: www.TamilBlasters.sbs - Saaya (Single) (2022) Tamil Original HQ MP3 [128Kbps] - Mithun Eshwar Musical.mp3 ExClusive
  7. WE ARE NOW AVAILABLE ON NEW TELEGRAM CHANNEL JOIN FOR LATEST UPDATES WE ALSO AVAILABLE IN ANDROID APP! INSTALL NOW TO GET INSTANT UPDATES & BYPASS RESTRICTIONS General CompleteName :www.TamilBlasters.sbs - Aatam (From Sila Nerangalil Sila Manidhargal) (2022) Tamil Original MP3 [320Kbps] - Radhan Musical.mp3 Format/String : MPEG Audio FileSize/String : 11.2 MiB Duration/String : 4 min 50 s OverallBitRate_Mode/String : Constant OverallBitRate/String : 320 kb/s Album : Aatam Album/Performer : Radhan Part/Position : 1 Part/Position_Total : 1 Track : Aatam (From "Sila Nerangalil Sila Manidhargal") Track/Position : 1 Track/Position_Total : 1 Performer : Radhan Composer : Radhan Recorded_Date : 2022 Encoded_Library/String : LAME3.99r ISRC : INS172200243 Copyright : (P) 2022 Sony Music Entertainment India Pvt. Ltd. Cover : Yes Cover_Type : Cover (front) Cover_Mime : image/jpeg Comment : Bad Captain Media Type : single Audio Format/String : MPEG Audio Format_Version : Version 1 Format_Profile : Layer 3 Format_Settings : Joint stereo Duration/String : 4 min 50 s BitRate_Mode/String : Constant BitRate/String : 320 kb/s Channel(s)/String : 2 channels SamplingRate/String : 44.1 kHz FrameRate/String : 38.281 FPS (1152 SPF) Compression_Mode/String : Lossy StreamSize/String : 11.1 MiB (99%) Encoded_Library/String : LAME3.99r Encoded_Library_Settings : -m j -V 4 -q 3 -lowpass 20.5 Tamil 320Kbps 11MB: www.TamilBlasters.sbs - Aatam (From "Sila Nerangalil Sila Manidhargal") (2022) Tamil Original MP3 [320Kbps] - Radhan Musical.mp3 Tamil 128Kbps 5MB: www.TamilBlasters.sbs - Aatam (From "Sila Nerangalil Sila Manidhargal") (2022) Tamil Original MP3 [128Kbps] - Radhan Musical.mp3
  8. WE ARE NOW AVAILABLE ON NEW TELEGRAM CHANNEL JOIN FOR LATEST UPDATES WE ALSO AVAILABLE IN ANDROID APP! INSTALL NOW TO GET INSTANT UPDATES & BYPASS RESTRICTIONS General Complete name :www.TamilBlasters.sbs - Summa Surrunu (From Etharkkum Thunindhavan) (2022) Tamil FLAC [24Bit - 48kHz] - D.Imman Musical.flac Format : FLAC Format/Info : Free Lossless Audio Codec File size : 50.9 MiB Duration : 3 min 46 s Overall bit rate mode : Variable Overall bit rate : 1 885 kb/s Album : Summa Surrunu (From "Etharkkum Thunindhavan") Album/Performer : Armaan Malik Part : 1 Part/Total : 1 Track name : Summa Surrunu (From "Etharkkum Thunindhavan") Track name/Position : 1 Track name/Total : 1 Publiser : Bad Captain Performer : Armaan Malik Composer : D. Imman Recorded date : 2022-01-16 ISRC : QM4TW2225797 Copyright : (C) 2021 Sun Pictures (P) 2021 Sun Pictures Cover : Yes Cover type : Cover (front) Cover MIME : image/jpeg Comment : Bad Captain MEDIATYPE : single ITUNESADVISORY : 1 Audio Format : FLAC Format/Info : Free Lossless Audio Codec Duration : 3 min 46 s Bit rate mode : Variable Bit rate : 1 881 kb/s Channel(s) : 2 channels Channel layout : L R Sampling rate : 48.0 kHz Bit depth : 24 bits Compression mode : Lossless Stream size : 50.8 MiB (100%) Tamil Hi - Res UNTOUCHED FLAC [24Bit - 48kHz] 50MB: www.TamilBlasters.sbs - Summa Surrunu (From Etharkkum Thunindhavan) (2022) Tamil FLAC [24Bit - 48kHz] - D.Imman Musical.flac Tamil 320Kbps 9MB: www.TamilBlasters.sbs - Summa Surrunu (From Etharkkum Thunindhavan) (2022) Tamil MP3 [320Kbps] - D.Imman Musical.mp3 ...OTHER SINGLES... 1st Single - Vaada Thambi 2nd Single - Ullam Urugudhaiya
  9. WE ARE NOW AVAILABLE ON NEW TELEGRAM CHANNEL JOIN FOR LATEST UPDATES WE ALSO AVAILABLE IN ANDROID APP! INSTALL NOW TO GET INSTANT UPDATES & BYPASS RESTRICTIONS General Complete name : D:\ALL SONGS\FLAC\Govind Vasantha\Achamillai\FLAC (24bit-48kHz)\www.TamilBlasters.sbs - Achamillai (From Hey Sinamika) (2022) Tamil FLAC [24Bit - 48kHz] - Govind Vasantha Musical.flac Format : FLAC Format/Info : Free Lossless Audio Codec File size : 49.2 MiB Duration : 3 min 54 s Overall bit rate mode : Variable Overall bit rate : 1 761 kb/s Album : Achamillai Album/Performer : Govind Vasantha Part : 1 Part/Total : 1 Track name : Achamillai (From "Hey Sinamika") Track name/Position : 1 Track name/Total : 1 Performer : Govind Vasantha Composer : Govind Vasantha Recorded date : 2022-01-14 ISRC : INS172200208 Copyright : (P) 2022 Sony Music Entertainment India Pvt. Ltd. Cover : Yes Cover type : Cover (front) Cover MIME : image/jpeg Comment : Bad Captain MEDIATYPE : single ITUNESADVISORY : 1 Audio Format : FLAC Format/Info : Free Lossless Audio Codec Duration : 3 min 54 s Bit rate mode : Variable Bit rate : 1 758 kb/s Channel(s) : 2 channels Channel layout : L R Sampling rate : 48.0 kHz Bit depth : 24 bits Compression mode : Lossless Stream size : 49.2 MiB (100%) Hi - Res UNTOUCHED FLAC [24Bit - 48kHz] 50MB: www.TamilBlasters.sbs - Achamillai (From Hey Sinamika) (2022) Tamil FLAC [24Bit - 48kHz] - Govind Vasantha Musical.flac Tamil Original HQ MP3 [320Kbps] 10MB: www.TamilBlasters.sbs - Achamillai (From "Hey Sinamika") (2022) Tamil Original HQ MP3 [320Kbps] - Govind Vasantha Musical.mp3
  10. www.TamilBlasters.sbs - Thitthikiradhe(From Veerame Vaagai Soodum) (2022) Tamil Original HQ MP3 [320Kbps] - Yuvan Shankar Musical.mp3
  11. WE ARE NOW AVAILABLE ON NEW TELEGRAM CHANNEL JOIN FOR LATEST UPDATES WE ALSO AVAILABLE IN ANDROID APP! INSTALL NOW TO GET INSTANT UPDATES & BYPASS RESTRICTIONS General Complete name :www.TamilBlasters.sbs - Karakki (From Karakki) (2022) Tamil Original HQ MP3 [320Kbps] - ADY KRIZ Musical.mp3 Format : MPEG Audio File size : 8.33 MiB Duration : 3 min 33 s Overall bit rate mode : Constant Overall bit rate : 320 kb/s Album : Karakki Album/Performer : ADY KRIZ/Senthil Ganesh/Rajalakshmi Senthiganesh Part/Position : 1 Track name : Karakki Track name/Position : 1 Performer : ADY KRIZ/Senthil Ganesh/Rajalakshmi Senthiganesh Publisher : Think Music Recorded date : 2022-01-13 Writing library : LAME3.99r ISRC : INT202202928 Cover : Yes Cover description : cover Cover type : Cover (front) Cover MIME : image/jpeg BARCODE : 8906035374562 Audio Format : MPEG Audio Format version : Version 1 Format profile : Layer 3 Format settings : Joint stereo / MS Stereo Duration : 3 min 33 s Bit rate mode : Constant Bit rate : 320 kb/s Channel(s) : 2 channels Sampling rate : 44.1 kHz Frame rate : 38.281 FPS (1152 SPF) Compression mode : Lossy Stream size : 8.13 MiB (98%) Writing library : LAME3.99r Encoding settings : -m j -V 4 -q 3 -lowpass 20.5 Tamil Original HQ MP3 [320Kbps] 8MB: www.TamilBlasters.sbs - Karakki (From "Karakki") (2022) Tamil Original HQ MP3 [320Kbps] - ADY KRIZ Musical.mp3 Tamil Original HQ MP3 [128Kbps] 4MB: www.TamilBlasters.sbs - Karakki (From "Karakki") (2022) Tamil Original HQ MP3 [128Kbps] - ADY KRIZ Musical.mp3
  12. WE ARE NOW AVAILABLE ON NEW TELEGRAM CHANNEL JOIN FOR LATEST UPDATES WE ALSO AVAILABLE IN ANDROID APP! INSTALL NOW TO GET INSTANT UPDATES & BYPASS RESTRICTIONS General Complete name :www.TamilBlasters.sbs - Yelammaa Yela (From Yaanai) (2022) Tamil CD Quality FLAC [16Bit] - G.V Prakash Musical.flac Format : FLAC Format/Info : Free Lossless Audio Codec File size : 26.2 MiB Duration : 4 min 8 s Overall bit rate mode : Variable Overall bit rate : 884 kb/s Album : Yelammaa Yela (From "Yaanai") Album/Performer : G. V. Prakash / Arya Dhayal Part : 1 Track name : Yelammaa Yela (From "Yaanai") Track name/Position : 1 Performer : G. V. Prakash / Arya Dhayal Recorded date : 2022-01-13 ISRC : FR10S2222262 Cover : Yes Cover type : Cover (front) Cover MIME : image/jpeg LENGTH : 248000 PUBLISHER : Drumsticks Productions BARCODE : 3616843586563 Audio Format : FLAC Format/Info : Free Lossless Audio Codec Duration : 4 min 8 s Bit rate mode : Variable Bit rate : 880 kb/s Channel(s) : 2 channels Channel layout : L R Sampling rate : 44.1 kHz Bit depth : 16 bits Compression mode : Lossless Stream size : 26.0 MiB (99%) Writing library : libFLAC 1.3.0 (UTC 2013-05-26) Tamil FLAC CD Quality [16Bit] 26MB: www.TamilBlasters.sbs - Yelammaa Yela (From Yaanai) (2022) Tamil CD Quality FLAC 16Bit - G.V Prakash Musical.flac Tamil Original HQ MP3 [320Kbps] 10MB: www.TamilBlasters.sbs - Yelammaa Yela (From Yaanai) (2022) Tamil Original HQ MP3 [320Kbps] - G.V Prakash Musical.mp3 Tamil Original HQ MP3 [128Kbps] 4MB: www.TamilBlasters.sbs - Yelammaa Yela (From Yaanai) (2022) Tamil Original HQ MP3 [128Kbps] - G.V Prakash Musical.mp3 DEEZER
  13. WE ARE NOW AVAILABLE ON TELEGRAM CHANNEL JOIN FOR LATEST UPDATES ...Song List... Tamil Hi - Res UNTOUCHED 24bit [48kHz] 182MB: www.TamilBlasters.sbs - Theal (Original Motion Picture Soundtrack) - 2021 - [Tamil Original UNTOUCHED FLAC (24bit-48kHz) - 182MB] Tamil Original HQ MP3 320kbps 34MB: www.TamilBlasters.sbs - Theal (Original Motion Picture Soundtrack) - 2021 - [Tamil Original UNTOUCHED MP3(320KB/s - CBR) - 34MB] RE - Uploaded...
  14. WE ARE NOW AVAILABLE ON NEW TELEGRAM CHANNEL JOIN FOR LATEST UPDATES WE ALSO AVAILABLE IN ANDROID APP! INSTALL NOW TO GET INSTANT UPDATES & BYPASS RESTRICTIONS ...Song List... Tamil Hi - Res UNTOUCHED FLAC [24Bit - 44.1kHz] - MB: Soon... Tamil Original HQ MP3 [320Kbps] 78MB: www.TamilBlasters.sbs - Enna Solla Pogirai (Original Motion Picture Soundtrack) (2022) Tamil Original HQ MP3 [320Kbps] - Vivek - Mervin Musical.zip
×
×
  • Create New...